<?xml version="1.0" standalone="no"?>
<!DOCTYPE svg PUBLIC "-//W3C//DTD SVG 1.1//EN" "http://www.w3.org/Graphics/SVG/1.1/DTD/svg11.dtd" >
<svg xmlns="http://www.w3.org/2000/svg" xmlns:xlink="http://www.w3.org/1999/xlink" version="1.1">
<metadata>
Created by FontForge 20200314 at Mon Oct  5 09:52:36 2020
 By Robert Madole
Copyright (c) Font Awesome
</metadata>
<!-- Font Awesome Pro 5.15.1 by @fontawesome - https://fontawesome.com License - https://fontawesome.com/license (Commercial License) --><defs>
<font id="FontAwesome5Duotone-Solid" horiz-adv-x="512" >
  <font-face 
    font-family="Font Awesome 5 Duotone Solid"
    font-weight="900"
    font-stretch="normal"
    units-per-em="512"
    panose-1="2 0 5 3 0 0 0 0 0 0"
    ascent="448"
    descent="-64"
    bbox="-0.0380859 -64.0137 640.004 448.036"
    underline-thickness="25"
    underline-position="-50"
    unicode-range="U+0020-10F8FF"
  />
    <missing-glyph />
    <glyph glyph-name="rocket-primary" unicode="&#xf135;" 
d="M505.16 428.484c6.96875 -32.5723 6.90234 -58.0918 6.82422 -83.1816c0 -88.7656 -40.625 -156.217 -127.859 -212.277c-0.957031 -0.548828 -1.82812 -1.04883 -2.78906 -1.59766c-35.3906 -17.7246 -116.883 -58.0547 -163.457 -81.1035l-14.1758 -7.01367
c-4.25684 -2.10742 -9.08594 -3.31445 -14.1533 -3.31445c-8.77539 0 -16.7266 3.55176 -22.4951 9.29492l-53.6523 53.3984c-5.80859 5.78125 -9.38379 13.8164 -9.38379 22.6514c0 5.06445 1.18262 9.85449 3.28613 14.1104
c20.8438 42.1738 68.4492 138.451 88.0469 177.877c0.554688 0.976562 1.06641 1.875 1.625 2.85352c55.832 87.2031 123.359 127.818 212.508 127.818c24.8906 0 50.7422 0 83.1406 -6.94531c6.21094 -1.44043 11.1113 -6.35254 12.5352 -12.5703zM368 256
c26.4873 0.0117188 47.9893 21.5146 48 48.002c-0.000976562 26.4912 -21.5088 47.998 -48 47.998c-26.4922 0 -48 -21.5078 -48 -48s21.5078 -48 48 -48z" />
    <glyph glyph-name="plug-primary" unicode="&#xf1e6;" horiz-adv-x="384" 
d="M384 272v-32c0 -8.83105 -7.16895 -16 -16 -16h-16v-32c-0.0117188 -77.3096 -55.0684 -141.886 -128 -156.8v-99.2002h-64v99.2002c-72.9316 14.9141 -127.988 79.4902 -128 156.8v32h-16c-8.83105 0 -16 7.16895 -16 16v32c0 8.83105 7.16895 16 16 16h352
c8.83105 0 16 -7.16895 16 -16z" />
    <glyph glyph-name="hand-spock-primary" unicode="&#xf259;" 
d="M288.003 -16c-8.82617 0 -16 7.16504 -16 15.9902v0.00976562c-0.0458984 44.1318 -35.8672 79.9531 -79.999 80c-8.81543 0.0185547 -15.9658 7.18066 -15.9658 16s7.15039 15.9814 15.9658 16h159.999c8.81543 -0.0185547 15.9658 -7.18066 15.9658 -16
s-7.15039 -15.9814 -15.9658 -16h-81.6875c20.793 -20.2832 33.7109 -48.6016 33.7109 -79.9141c0 -0.0263672 -0.0234375 -0.0595703 -0.0234375 -0.0859375v-0.00976562c0 -8.8252 -7.16504 -15.9902 -15.9902 -15.9902h-0.00976562z" />
    <glyph glyph-name="shower-primary" unicode="&#xf2cc;" 
d="M389.66 346.35c2.89648 -2.89551 4.68945 -6.90039 4.68945 -11.3164s-1.79297 -8.41699 -4.68945 -11.3135l-169.4 -169.37c-2.89551 -2.89355 -6.89844 -4.68457 -11.3125 -4.68457c-4.41309 0 -8.41113 1.79102 -11.3076 4.68457l-11.3193 11.3105
c-2.89453 2.89551 -4.68555 6.89844 -4.68555 11.3125c0 4.41309 1.79102 8.41113 4.68555 11.3076l5.67969 5.66992c-19.7891 20.0791 -31.998 47.6582 -32 78.0498c0 19.2402 5.2998 37.0801 13.9297 52.8604l-10 10c-10.5723 10.6055 -25.1416 17.167 -41.2861 17.167
c-2.58984 0 -5.1416 -0.169922 -7.64355 -0.49707c-30 -3.73047 -51 -31.7803 -51 -61.9307v-305.6c0 -8.83105 -7.16895 -16 -16 -16h-32c-8.83105 0 -16 7.16895 -16 16v303.15c0 67.9395 55.4902 129.35 123.44 128.85
c33.4453 -0.166992 63.7471 -13.835 85.6592 -35.8496l10 -10c15.8203 8.5498 33.6602 13.8496 52.9004 13.8496c30.3896 0 57.9736 -12.209 78.0498 -32l5.66992 5.66016c2.89648 2.89355 6.89941 4.68457 11.3125 4.68457s8.41211 -1.79102 11.3076 -4.68457z" />
    <glyph glyph-name="bath-primary" unicode="&#xf2cd;" 
d="M32 64v48h448v-48c-0.0576172 -28.2656 -12.3916 -53.6514 -32 -71.0898v-40.9102c0 -8.83105 -7.16895 -16 -16 -16h-32c-8.83105 0 -16 7.16895 -16 16v16h-256v-16c0 -8.83105 -7.16895 -16 -16 -16h-32c-8.83105 0 -16 7.16895 -16 16v40.9102
c-19.6084 17.4385 -31.9424 42.8242 -32 71.0898zM496 192c8.83105 0 16 -7.16895 16 -16v-16c0 -8.83105 -7.16895 -16 -16 -16h-480c-8.83105 0 -16 7.16895 -16 16v16c0 8.83105 7.16895 16 16 16h480z" />
    <glyph glyph-name="compress-alt-primary" unicode="&#xf422;" horiz-adv-x="448" 
d="M443.31 385.94c2.89746 -2.89648 4.69043 -6.89746 4.69043 -11.3135s-1.79297 -8.4209 -4.69043 -11.3174l-99.3096 -99.3096l32.9199 -31c15.1201 -15.1201 4.41016 -41 -17 -41h-111.92c-13.2461 0 -24 10.7539 -24 24v112c0 21.3799 25.7998 32.0898 40.9199 17
l31.0801 -33l99.3096 99.3096c2.89648 2.89746 6.89746 4.69043 11.3135 4.69043s8.4209 -1.79297 11.3174 -4.69043z" />
    <glyph glyph-name="expand-alt-primary" unicode="&#xf424;" horiz-adv-x="448" 
d="M235.31 251.31l92.6904 92.6904l-32.9199 31c-15.1201 15.1201 -4.41016 41 17 41h112c13.208 -0.0439453 23.9199 -10.7812 23.9199 -24v-112c0 -21.3799 -25.7998 -32.0898 -40.9199 -17l-31.0801 33l-92.6904 -92.6904
c-2.89551 -2.89355 -6.89355 -4.68457 -11.3076 -4.68457c-4.41309 0 -8.41602 1.79102 -11.3115 4.68457l-25.3809 25.3809c-2.89355 2.89551 -4.68457 6.89355 -4.68457 11.3076c0 4.41309 1.79102 8.41602 4.68457 11.3115z" />
    <glyph glyph-name="balance-scale-left-primary" unicode="&#xf515;" horiz-adv-x="640" 
d="M640 144c0 -44.1797 -57.3096 -80 -128 -80s-128 35.8203 -128 80c0 15.6699 -2.05957 7.25 85.0801 181.51c17.6797 35.3604 68.2197 35.29 85.8701 0c86.3896 -172.779 85.0498 -165.33 85.0498 -181.51zM440 160h144l-72 144zM170.93 197.51
c86.3906 -172.779 85.0703 -165.33 85.0703 -181.51c0 -44.1797 -57.3096 -80 -128 -80s-128 35.8203 -128 80c0 15.6699 -2.05957 7.25 85.0596 181.51c17.6807 35.3604 68.2207 35.29 85.8701 0zM56 32h144l-72 144z" />
    <glyph glyph-name="balance-scale-right-primary" unicode="&#xf516;" horiz-adv-x="640" 
d="M0 144c0 16.1797 -1.32031 8.73047 85.1299 181.51c17.6504 35.29 68.1904 35.3604 85.8701 0c87.0801 -174.26 85 -165.84 85 -181.51c0 -44.1797 -57.3096 -80 -128 -80s-128 35.8203 -128 80zM56 160h144l-72 144zM384 16c0 16.1797 -1.32031 8.73047 85.0801 181.51
c17.6504 35.29 68.1895 35.3604 85.8701 0c87.1299 -174.26 85.0498 -165.84 85.0498 -181.51c0 -44.1797 -57.3096 -80 -128 -80s-128 35.8203 -128 80zM440 32h144l-72 144z" />
    <glyph glyph-name="robot-primary" unicode="&#xf544;" horiz-adv-x="640" 
d="M464 352c0.00878906 0 0.0175781 0.000976562 0.0263672 0.000976562c44.1387 0 79.9736 -35.8359 79.9736 -79.9746v-0.0263672v-272c-0.0351562 -35.3066 -28.6934 -63.9648 -64 -64h-320c-35.3066 0.0351562 -63.9648 28.6934 -64 64v272
c0 0.00878906 -0.000976562 0.0175781 -0.000976562 0.0263672c0 44.1387 35.8359 79.9736 79.9746 79.9736h0.0263672h288zM256 32v32h-64v-32h64zM224 152c22.0752 0 40 17.9248 40 40c0 22.0762 -17.9238 40 -40 40s-40 -17.9238 -40 -40s17.9238 -40 40 -40zM352 32v32
h-64v-32h64zM448 32v32h-64v-32h64zM416 152c22.0752 0 40 17.9248 40 40c0 22.0762 -17.9238 40 -40 40s-40 -17.9238 -40 -40s17.9238 -40 40 -40z" />
    <glyph glyph-name="grin-tongue-wink-primary" unicode="&#xf58b;" horiz-adv-x="496" 
d="M212 225.74v0.0595703c1.59961 -11.0996 -11.5996 -18.2002 -20 -10.7998l-9.5 8.44043c-14.7998 13.1992 -46.2002 13.1992 -61 0l-9.5 -8.5c-8.5 -7.40039 -21.5996 -0.300781 -19.7998 10.7998c4 25.2598 34.2002 42.1094 59.8994 42.1094
c25.7002 0 55.9004 -16.9092 59.9004 -42.1094zM258.5 55.7402c3.5 15.3994 20.2002 24.0596 34.5898 17.5596c0.799805 -0.399414 -0.5 0.299805 19 -9.2998v-64.8701c-0.487305 -34.9033 -28.959 -63.1064 -63.9775 -63.1064
c-0.304688 0 -0.608398 0.00195312 -0.912109 0.00683594c-35.1006 0.399414 -63.1006 29.7002 -63.1006 64.9102v63c19.2002 9.59961 18 9 18.9004 9.39941c14.4004 6.5 31.0996 -2.2002 34.5996 -17.5996l1.80078 -7.7998c2.09961 -9.2207 15.1992 -9.2207 17.2998 0z
M344 264h0.120117c13.1846 -0.0332031 23.8809 -10.7471 23.8809 -23.9395c0 -13.2129 -10.7266 -23.9404 -23.9395 -23.9404s-23.9404 10.7275 -23.9404 23.9404c0 13.1924 10.6943 23.9062 23.8789 23.9395z" />
    <glyph glyph-name="atom-primary" unicode="&#xf5d2;" horiz-adv-x="448" 
d="M100.657 124.213c14.0381 -11.5732 28.5635 -22.2148 43.8828 -32.1406c-12.0674 -2.68066 -24.5205 -4.3457 -37.2607 -4.87891c-2.67578 11.8867 -4.87207 24.2559 -6.62207 37.0195zM119.973 192c13.0928 12.624 26.8516 24.084 41.6768 34.6973
c-2.16016 -27.915 -2.27539 -39.9893 0 -69.3945c-14.8252 10.6133 -28.584 22.0732 -41.6768 34.6973zM107.283 296.809c12.7383 -0.533203 25.1904 -2.19824 37.2568 -4.87891c-15.3193 -9.92676 -29.8438 -20.5693 -43.8828 -32.1426
c1.75 12.7656 3.94922 25.1348 6.62598 37.0215zM347.343 259.787c3.10352 -22.3213 4.70703 -44.1162 4.70703 -67.2852c0 -23.1699 -1.60352 -45.9678 -4.70703 -68.2891c-1.75 -12.7637 -3.94629 -25.1328 -6.62207 -37.0195
c-4.74512 -21.625 -11.6328 -42.9902 -20.1562 -62.9297c-23.4727 -53.9824 -57.9834 -88.2637 -96.5645 -88.2637s-73.0918 34.2812 -96.5645 88.2637c22.0215 2.51465 43.7607 7.29785 64.2461 13.9473c12.4668 -24.6504 25.4023 -38.2109 32.3184 -38.2109
s19.8555 13.5625 32.3184 38.2109c2.81641 5.56738 24.3447 45.7021 30.0322 119.092c2.16016 27.915 2.27539 39.9893 0 69.3945c-5.6875 73.3945 -27.2275 113.548 -30.0322 119.092c-12.4629 24.6504 -25.4023 38.2109 -32.3184 38.2109
s-19.8516 -13.5605 -32.3184 -38.209c-20.4854 6.65039 -42.2246 11.4336 -64.2461 13.9473c23.4727 53.9805 57.9834 88.2617 96.5645 88.2617s73.0918 -34.2812 96.5645 -88.2637c8.52344 -19.9395 15.4111 -41.3047 20.1562 -62.9297
c2.67578 -11.8848 4.87207 -24.2539 6.62207 -37.0195zM256.014 192c-0.0380859 -17.6484 -14.3633 -31.9697 -32.0137 -32c-17.6689 0 -32.0137 14.3447 -32.0137 32.0137s14.3447 32.0137 32.0137 32.0137s32.0137 -14.3447 32.0137 -32.0137v-0.0136719z" />
    <glyph glyph-name="atom-alt-primary" unicode="&#xf5d3;" horiz-adv-x="448" 
d="M224 160.012c-0.00390625 0 -0.00683594 0.00488281 -0.0107422 0.00488281c-17.6553 0 -31.9893 14.334 -31.9893 31.9893c0 17.6582 14.3359 31.9941 31.9941 31.9941s31.9941 -14.3359 31.9941 -31.9941c0 -17.6562 -14.333 -31.9912 -31.9883 -31.9941z
M121.461 192.002c29.2607 -39.1006 63.3809 -73.1553 102.539 -102.344c-18.1758 -13.5 -37.5684 -25.3721 -58.043 -35.4746c-25.3398 20.6602 -51.4023 44.4297 -80.1992 79.7324c-15.0049 18.373 -28.5605 37.6465 -40.8242 58.084
c-49.2109 82.0801 -60.5264 161.1 -21.3086 200.309c16.0869 16.0762 38.8594 23.6914 65.7939 23.6914c38.7451 0 86.1436 -16.1309 134.581 -45.1445c-20.4277 -12.3408 -39.6826 -25.9639 -58.043 -41.0371c-70.0117 34.334 -95.2227 19.0703 -97.0615 17.2324
c-9.54395 -9.54102 -7.67578 -46.9434 16.8623 -96.9668c10.1592 -20.5078 22.1064 -39.9111 35.7031 -58.082zM403.066 192c49.2109 -82.0801 60.5264 -161.1 21.3086 -200.307c-16.0869 -16.0781 -38.8594 -23.6934 -65.7939 -23.6934
c-38.7451 0 -86.1436 16.1309 -134.581 45.1445c20.4277 12.3408 39.6826 25.9639 58.043 41.0371c70.0117 -34.334 95.2227 -19.0703 97.0615 -17.2324c9.54395 9.54297 7.67578 46.9453 -16.8623 96.9668c-10.1572 20.5098 -22.1045 39.9131 -35.7031 58.084
c-29.2617 39.0996 -63.3818 73.1553 -102.539 102.344c18.1758 13.499 37.5684 25.3711 58.043 35.4727c25.3008 -20.6289 51.3555 -44.377 80.1992 -79.7324c15.0049 -18.373 28.5605 -37.6465 40.8242 -58.084z" />
    <glyph glyph-name="shapes-primary" unicode="&#xf61f;" 
d="M512 128v-160c0 -17.6611 -14.3389 -32 -32 -32h-160c-17.6611 0 -32 14.3389 -32 32v160c0 17.6611 14.3389 32 32 32h160c17.6611 0 32 -14.3389 32 -32z" />
    <glyph glyph-name="envelope-open-dollar-primary" unicode="&#xf657;" 
d="M329.4 406.56l30.5996 -22.5596h-208l30.5898 22.5596c16.8203 12.2705 50.21 41.79 73.4102 41.4404c23.2002 0.349609 56.5996 -29.1797 73.4004 -41.4404zM493.61 285c11.2002 -8.77832 18.3711 -22.4043 18.3896 -37.7197v-10.6504l-64 -46.2402v128.54
c23.8799 -17.6699 42.6699 -31.6299 45.6104 -33.9297zM64 319v-128.61l-64 46.2402v10.6504c0.0185547 15.3154 7.18945 28.9414 18.3896 37.7197c2.94043 2.34961 21.7305 16.3096 45.6104 34zM256 30.8701c17.4658 0.00878906 33.7021 5.66797 46.8604 15.1895
l209.14 151.08v-213.14c0 -26.4922 -21.5078 -48 -48 -48h-416c-26.4922 0 -48 21.5078 -48 48v213.14l209.14 -151.08c13.1484 -9.52832 29.3818 -15.1895 46.8457 -15.1895h0.0146484zM240 312.87v16.1299c0 4.41504 3.58496 8 8 8h16c4.41504 0 8 -3.58496 8 -8v-16.29
c12.1602 -0.533203 23.3809 -5.02148 32.2695 -12.1797c2.10059 -2.23047 3.74023 -7.49023 -0.339844 -11.3105l-11.75 -11.2197c-1.45605 -1.33203 -3.39551 -2.14551 -5.52344 -2.14551c-1.70215 0 -3.2959 0.525391 -4.60645 1.41504
c-3.70605 2.34082 -8.11914 3.71582 -12.8193 3.73047h-28.1104c-6.5 0 -11.7998 -5.91992 -11.7998 -13.1904c0 -5.94922 3.60938 -11.1797 8.76953 -12.7295l45 -13.5c18.5801 -5.58008 31.5801 -23.3896 31.5801 -43.3896
c0 -24.5303 -19.0498 -44.4404 -42.6699 -45.0703v-16.1201c0 -4.41504 -3.58496 -8 -8 -8h-16c-4.41504 0 -8 3.58496 -8 8v16.29c-19.8301 1 -32.3496 12.1797 -32.2197 12.1797c-1.34961 1.43262 -2.17676 3.3623 -2.17676 5.4834
c0 2.29492 0.96582 4.36719 2.5166 5.82715l11.75 11.2197c1.45996 1.32715 3.39941 2.13672 5.52637 2.13672c1.7002 0 3.29199 -0.520508 4.60352 -1.40625c3.69141 -2.33594 8.08691 -3.71094 12.7695 -3.73047h28.1104c6.5 0 11.7998 5.91992 11.7998 13.1904
c0 5.94922 -3.60938 11.1797 -8.76953 12.7295l-45 13.5c-18.5801 5.58008 -31.5801 23.3896 -31.5801 43.3896c0 24.5205 19.0498 44.4404 42.6699 45.0703v-0.00976562z" />
    <glyph glyph-name="envelope-open-text-primary" unicode="&#xf658;" 
d="M352 288v-16c0 -8.83105 -7.16895 -16 -16 -16h-160c-8.83105 0 -16 7.16895 -16 16v16c0 8.83105 7.16895 16 16 16h160c8.83105 0 16 -7.16895 16 -16zM336 224c8.83105 0 16 -7.16895 16 -16v-16c0 -8.83105 -7.16895 -16 -16 -16h-160c-8.83105 0 -16 7.16895 -16 16
v16c0 8.83105 7.16895 16 16 16h160zM329.4 406.6l30.5996 -22.5996h-208l30.5996 22.5996c16.8008 12.2002 50.2002 41.7002 73.4004 41.4004c23.2002 0.299805 56.5996 -29.2002 73.4004 -41.4004zM64 319v-128.6l-64 46.1992v10.7002
c0.0273438 15.3086 7.20117 28.9277 18.4004 37.7002c2.89941 2.40039 21.6992 16.2998 45.5996 34zM493.6 285c11.1992 -8.77246 18.373 -22.3916 18.4004 -37.7002v-10.7002l-64 -46.1992v128.5c23.9004 -17.6006 42.7002 -31.6006 45.5996 -33.9004zM256 30.9004
c17.4814 0.00292969 33.7334 5.66699 46.9004 15.1992l209.1 151v-213.1c0 -26.4922 -21.5078 -48 -48 -48h-416c-26.4922 0 -48 21.5078 -48 48v213.1l209.1 -151c13.167 -9.53223 29.4189 -15.1963 46.9004 -15.1992z" />
    <glyph glyph-name="bahai-primary" unicode="&#xf666;" 
d="M496.25 245.48c17.54 -2.48047 21.6797 -26.2705 6.03027 -34.6602l-98.1602 -52.6602l74.4795 -83.54c11.8604 -13.29 0.0107422 -34.25 -17.3496 -30.4902l-108.57 23.6504l4.11035 -112.55c0.0146484 -0.302734 0.0244141 -0.594727 0.0244141 -0.900391
c0 -10.1113 -8.20898 -18.3203 -18.3203 -18.3203h-0.114258c-5.82617 0.00195312 -10.9883 2.81836 -14.2002 7.18066l-68.1797 88.8994l-68.1699 -88.9102c-3.21289 -4.36035 -8.37402 -7.17676 -14.2002 -7.17969
c-0.0380859 0 -0.0742188 -0.0136719 -0.113281 -0.0136719c-10.1104 0 -18.3193 8.20898 -18.3193 18.3203c0 0.30957 0.0078125 0.617188 0.0224609 0.923828l4.11035 112.55l-108.57 -23.6504c-1.31348 -0.292969 -2.66797 -0.448242 -4.06934 -0.450195
c-15.0107 0 -24.21 18.6807 -13.29 30.9307l74.5498 83.5498l-98.1602 52.6602c-15.6797 8.39941 -11.54 32.21 6 34.6699l110 15.4297l-41.8203 104.34c-6.66016 16.6299 11.5898 32.1807 26.5898 22.6299l94 -59.8896l34.0908 107.18
c2.27832 7.41992 9.18262 12.8203 17.3457 12.8203s15.0752 -5.40039 17.3535 -12.8203l34.1309 -107.18l94 59.8896c14.9893 9.55078 33.2598 -5.98926 26.5898 -22.6299l-41.8203 -104.34zM338.51 136.32l-35.6094 39.9297l46.9092 25.1201l-52.5693 7.37988l20 49.8701
l-44.9502 -28.6201l-16.29 51.2803l-16.3096 -51.2803l-44.9209 28.6699l20 -49.8701l-52.5693 -7.37988l46.9199 -25.1699l-35.6006 -39.9297l51.8906 11.2998l-2 -53.79l32.5898 42.4902l32.6201 -42.4902l-2 53.79z" />
    <glyph glyph-name="lightbulb-on-primary" unicode="&#xf672;" horiz-adv-x="640" 
d="M240.06 -6.33984l-0.0595703 38.3398h160v-38.3398c-0.30957 -6.41992 -2.2627 -12.4834 -5.41016 -17.6602l-17.0898 -25.6904c-5.23047 -7.90918 -17.1699 -14.2793 -26.6396 -14.2793h-61.7002c-9.46973 0 -21.4102 6.37012 -26.6406 14.2793l-17.0996 25.6904
c-3.3623 5.05176 -5.3457 11.1455 -5.36035 17.6602zM112 256c0 -13.2461 -10.7539 -24 -24 -24h-64c-13.2461 0 -24 10.7539 -24 24s10.7539 24 24 24h64c13.2461 0 24 -10.7539 24 -24zM616 280c13.2461 0 24 -10.7539 24 -24s-10.7539 -24 -24 -24h-64
c-13.2461 0 -24 10.7539 -24 24s10.7539 24 24 24h64zM131.08 392.78c7.39355 -4.0918 12.3535 -11.9424 12.3535 -20.9844c0 -13.2451 -10.7539 -24 -24 -24c-4.5166 0 -8.74414 1.25098 -12.3535 3.42383l-55.4199 32c-7.39355 4.0918 -12.3535 11.9424 -12.3535 20.9844
c0 13.2451 10.7539 24 24 24c4.5166 0 8.74414 -1.25098 12.3535 -3.42383zM588.34 128.78c6.97656 -4.2002 11.5957 -11.8174 11.5957 -20.5459c0 -13.2461 -10.7539 -24 -24 -24c-4.2041 0 -8.15723 1.08301 -11.5957 2.98535l-55.4199 32
c-7.39355 4.0918 -12.3535 11.9424 -12.3535 20.9844c0 13.2451 10.7539 24 24 24c4.5166 0 8.74414 -1.25098 12.3535 -3.42383zM107.08 160.78c3.4375 1.90234 7.44238 3.01562 11.6465 3.01562c13.2461 0 24 -10.7539 24 -24
c0 -8.72852 -4.66992 -16.376 -11.6465 -20.5762l-55.4199 -32c-3.60938 -2.17285 -7.8877 -3.4541 -12.4043 -3.4541c-13.2461 0 -24 10.7549 -24 24c0 9.04199 5.01074 16.9229 12.4043 21.0146zM520.94 348c-13.2422 0.00488281 -24.0186 10.7412 -24.0186 23.9844
c0 8.88379 4.83691 16.6455 12.0186 20.7959l55.4199 32c3.4375 1.90234 7.44238 3.01562 11.6465 3.01562c13.2461 0 24 -10.7539 24 -24c0 -8.72852 -4.6709 -16.376 -11.6465 -20.5762l-55.4199 -32c-3.50879 -2.03711 -7.6084 -3.21973 -11.9541 -3.21973h-0.0458984z
" />
    <glyph glyph-name="dog-primary" unicode="&#xf6d3;" horiz-adv-x="576" 
d="M128 224h170.05l149.95 -53.5498v-218.45c0 -8.83105 -7.16895 -16 -16 -16h-64c-8.83105 0 -16 7.16895 -16 16v112h-160v-112c0 -8.83105 -7.16895 -16 -16 -16h-64c-8.83105 0 -16 7.16895 -16 16v213.9c-37.1699 13.25 -64 48.4395 -64 90.0996
c0 17.6611 14.3389 32 32 32s32 -14.3389 32 -32s14.3389 -32 32 -32zM528 352c8.83105 0 16 -7.16895 16 -16v-32c0 -35.3223 -28.6777 -64 -64 -64h-32v-35.5801l-128 45.71v149.87c0 14.2197 17.2305 21.3604 27.3203 11.2803l27.2793 -27.2803h53.6201
c12.5303 -0.000976562 23.3701 -7.18848 28.6201 -17.6904l7.16016 -14.3096h64zM416 320c8.83105 0 16 7.16895 16 16s-7.16895 16 -16 16s-16 -7.16895 -16 -16s7.16895 -16 16 -16z" />
    <glyph glyph-name="dog-leashed-primary" unicode="&#xf6d4;" horiz-adv-x="576" 
d="M96 256c0 -17.6611 14.3389 -32 32 -32h144v-160h-80v-112c0 -8.83105 -7.16895 -16 -16 -16h-64c-8.83105 0 -16 7.16895 -16 16v213.9c-37.1699 13.25 -64 48.4395 -64 90.0996c0 17.6611 14.3389 32 32 32s32 -14.3389 32 -32zM320 64v152.16l128 -45.71v-218.45
c0 -8.83105 -7.16895 -16 -16 -16h-64c-8.83105 0 -16 7.16895 -16 16v112h-32zM528 352c8.83105 0 16 -7.16895 16 -16v-32c0 -35.3223 -28.6777 -64 -64 -64h-32v-35.5801l-128 51.5801v144c0 14.2197 17.2305 21.3604 27.3203 11.2803l27.2793 -27.2803h53.6201
c12.5303 -0.000976562 23.3701 -7.18848 28.6201 -17.6904l7.16016 -14.3096h64zM416 320c8.83105 0 16 7.16895 16 16s-7.16895 16 -16 16s-16 -7.16895 -16 -16s7.16895 -16 16 -16z" />
    <glyph glyph-name="meteor-primary" unicode="&#xf753;" 
d="M191.971 255.996c70.6318 0 127.98 -57.3438 127.98 -127.975v-0.0234375c0 -70.6445 -57.3359 -127.998 -127.98 -127.998s-127.998 57.3535 -127.998 127.998s57.3535 127.998 127.998 127.998zM159.976 127.998
c0.0117188 0 0.0234375 -0.000976562 0.0361328 -0.000976562c17.6387 0 31.959 14.3203 31.959 31.959v0.0410156c0 17.6611 -14.334 32 -31.9951 32s-32 -14.3389 -32 -32c0 -17.6602 14.3389 -31.999 32 -31.999zM207.968 63.999
c8.81738 0.0283203 15.9707 7.18262 15.998 15.999c0 8.83105 -7.16699 16 -15.998 16c-8.83008 0 -15.999 -7.16895 -15.999 -16c0 -8.83008 7.16895 -15.999 15.999 -15.999z" />
    <glyph glyph-name="stars-primary" unicode="&#xf762;" 
d="M364.294 180.707c18.7969 -2.70312 26.4072 -25.9053 12.7969 -39.2012l-75.8916 -73.9941l17.8906 -104.587c0.217773 -1.26758 0.307617 -2.53613 0.307617 -3.86621c0 -12.6689 -10.2861 -22.9541 -22.9541 -22.9541c-3.84277 0 -7.4668 0.947266 -10.6504 2.61914
l-93.7988 49.3877l-93.7988 -49.3877c-16.6104 -8.90527 -36.501 5.29688 -33.2979 24.2012l18 104.587l-75.9072 73.9941c-13.7031 13.2959 -6.09375 36.498 12.7031 39.2012l104.799 15.2949l46.9072 95.1963c8.5 17.2021 32.7979 16.999 41.1885 0l46.9072 -95.1963z" />
    <glyph glyph-name="satellite-primary" unicode="&#xf7bf;" 
d="M470.184 311.182l-199.522 -199.478c10.8848 -23.9688 16.9473 -50.584 16.9473 -78.6045c0 -32.3467 -8.09863 -63.1758 -22.3477 -89.8682c-4.50098 -8.50098 -16.4023 -9.60156 -23.2031 -2.80078l-237.627 237.532c-6.80078 6.80176 -5.7002 18.5928 2.80078 23.1934
c26.7021 14.248 57.1846 22.3262 89.5381 22.3262c28.0264 0 55.0039 -6.04297 78.9805 -16.9248l199.423 199.616c6.08691 6.06836 14.4824 9.82227 23.748 9.82227s17.6709 -3.75391 23.7578 -9.82227l47.5049 -47.4961c6.07227 -6.08301 9.8291 -14.4775 9.8291 -23.7432
s-3.75684 -17.6699 -9.8291 -23.7529v0z" />
    <glyph glyph-name="satellite-dish-primary" unicode="&#xf7c0;" 
d="M302.449 -39.5967c-77.7119 -41.8008 -176.728 -29.9004 -242.337 35.7021c-65.6104 65.6016 -77.5117 164.506 -35.7061 242.309c4.90137 9.10059 17.7031 10.3008 25.0039 3l256.039 -256.01c7.40137 -7.2998 6.20117 -20.1006 -3 -25.001z" />
    <glyph glyph-name="user-nurse-primary" unicode="&#xf82f;" horiz-adv-x="448" 
d="M144 288h-48v94.1797c0 13.7119 8.62988 25.4092 20.7598 29.96l84.7705 31.79c6.98438 2.61914 14.6035 4.05176 22.498 4.05176s15.457 -1.43262 22.4414 -4.05176l84.7705 -31.75c12.1309 -4.55078 20.7598 -16.248 20.7598 -29.96v-0.0400391v-94.1797h-208z
M184 376.33v-16.6602c0 -2.75977 2.24023 -5 5 -5h21.6699v-21.6699c0 -2.75977 2.24023 -5 5 -5h16.6602c2.75977 0 5 2.24023 5 5v21.6699h21.6699c2.75977 0 5 2.24023 5 5v16.6602c0 2.75977 -2.24023 5 -5 5h-21.6699v21.6699c0 2.75977 -2.24023 5 -5 5h-16.6602
c-2.75977 0 -5 -2.24023 -5 -5v-21.6699h-21.6699c-2.75977 0 -5 -2.24023 -5 -5zM319.41 128c71.4902 -3.09961 128.59 -61.5996 128.59 -133.79c0 -32.127 -26.083 -58.21 -58.21 -58.21h-331.58c-32.127 0 -58.21 26.083 -58.21 58.21
c0 72.1904 57.0996 130.69 128.59 133.79l95.4102 -95.3896z" />
    <glyph glyph-name="flux-capacitor-primary" unicode="&#xf8ba;" 
d="M385.143 282.286l-101.714 -101.715v-98.2852c0 -15.1387 -12.29 -27.4287 -27.4287 -27.4287s-27.4287 12.29 -27.4287 27.4287v98.3535l-101.714 101.715c-4.95898 4.96777 -8.02734 11.8232 -8.02734 19.3906c0 15.1504 12.3008 27.4512 27.4521 27.4512
c7.58398 0 14.4619 -3.07422 19.4316 -8.05371v0l90.2861 -90.2852l90.2861 90.2852c4.97266 4.97363 11.8418 8.05176 19.4248 8.05176c15.1641 0 27.4756 -12.3115 27.4756 -27.4766c0 -7.58203 -3.07031 -14.459 -8.04395 -19.4316z" />
    <glyph glyph-name="piano-primary" unicode="&#xf8d4;" 
d="M512 120.45v-56.4502h-80v-40c0 -4.41504 -3.58496 -8 -8 -8h-16c-4.41504 0 -8 3.58496 -8 8v40h-32v-40c0 -4.41504 -3.58496 -8 -8 -8h-16c-4.41504 0 -8 3.58496 -8 8v40h-96v-40c0 -4.41504 -3.58496 -8 -8 -8h-16c-4.41504 0 -8 3.58496 -8 8v40h-32v-40
c0 -4.41504 -3.58496 -8 -8 -8h-16c-4.41504 0 -8 3.58496 -8 8v40h-32v-40c0 -4.41504 -3.58496 -8 -8 -8h-16c-4.41504 0 -8 3.58496 -8 8v40h-80v199.55c0 101.801 82.6494 184.45 184.45 184.45h15.0996c101.801 0 184.45 -82.6494 184.45 -184.45v0
c0.00195312 -25.0605 14.377 -46.7393 35.3799 -57.2402l57.2402 -28.6191c21.0029 -10.501 35.3779 -32.1797 35.3799 -57.2402z" />
    <glyph glyph-name="air-conditioner-primary" unicode="&#xf8f4;" horiz-adv-x="576" 
d="M544 448c17.6611 0 32 -14.3389 32 -32v-160c0 -17.6611 -14.3389 -32 -32 -32h-512c-17.6611 0 -32 14.3389 -32 32v160c0 17.6611 14.3389 32 32 32h512zM512 288v32h-448v-32h448z" />
    <glyph glyph-name="alien-primary" unicode="&#xf8f5;" horiz-adv-x="448" 
d="M112 224c44.1523 0 80 -35.8477 80 -80c0 -8.83008 -7.16992 -16 -16 -16h-32c-44.1533 0 -80 35.8467 -80 80c0 8.83008 7.16992 16 16 16h32zM368 224c8.83008 0 16 -7.16992 16 -16c0 -44.1533 -35.8467 -80 -80 -80h-32c-8.83008 0 -16 7.16992 -16 16
c0 44.1523 35.8477 80 80 80h32z" />
    <glyph glyph-name="alien-monster-primary" unicode="&#xf8f6;" horiz-adv-x="576" 
d="M160 128v96h64v-96h-64zM352 224h64v-96h-64v96z" />
    <glyph glyph-name="bed-alt-primary" unicode="&#xf8f7;" 
d="M0 96h512v-112c0 -8.83105 -7.16895 -16 -16 -16h-32c-8.83105 0 -16 7.16895 -16 16v48h-384v-48c0 -8.83105 -7.16895 -16 -16 -16h-32c-8.83105 0 -16 7.16895 -16 16v112zM64 224c-11.6016 -0.212891 -22.5742 -3.44531 -32 -8.87988v0v168.88
c0 17.6611 14.3389 32 32 32h384c17.6611 0 32 -14.3389 32 -32v-168.88v0c-9.42383 5.43848 -20.3965 8.67188 -32 8.87988v64c0 17.6611 -14.3389 32 -32 32h-112c-17.6611 0 -32 -14.3389 -32 -32v-64h-32v64c0 17.6611 -14.3389 32 -32 32h-112
c-17.6611 0 -32 -14.3389 -32 -32v-64z" />
    <glyph glyph-name="bed-bunk-primary" unicode="&#xf8f8;" horiz-adv-x="576" 
d="M64 320h512v-368c0 -8.83105 -7.16895 -16 -16 -16h-32c-8.83105 0 -16 7.16895 -16 16v48h-448v-48c0 -8.83105 -7.16895 -16 -16 -16h-32c-8.83105 0 -16 7.16895 -16 16v480c0 8.83105 7.16895 16 16 16h32c8.83105 0 16 -7.16895 16 -16v-112zM512 64v192h-448v-192
h448z" />
    <glyph glyph-name="bed-empty-primary" unicode="&#xf8f9;" horiz-adv-x="640" 
d="M640 160v-144c0 -8.83105 -7.16895 -16 -16 -16h-32c-8.83105 0 -16 7.16895 -16 16v48h-512v-48c0 -8.83105 -7.16895 -16 -16 -16h-32c-8.83105 0 -16 7.16895 -16 16v352c0 8.83105 7.16895 16 16 16h32c8.83105 0 16 -7.16895 16 -16v-208h576z" />
    <glyph glyph-name="bell-on-primary" unicode="&#xf8fa;" horiz-adv-x="640" 
d="M88 280c13.2461 0 24 -10.7539 24 -24s-10.7539 -24 -24 -24h-64c-13.2461 0 -24 10.7539 -24 24s10.7539 24 24 24h64zM131.08 392.78c7.39355 -4.0918 12.3535 -11.9424 12.3535 -20.9844c0 -13.2451 -10.7539 -24 -24 -24
c-4.5166 0 -8.74414 1.25098 -12.3535 3.42383l-55.4199 32c-7.39355 4.0918 -12.3535 11.9424 -12.3535 20.9844c0 13.2451 10.7539 24 24 24c4.5166 0 8.74414 -1.25098 12.3535 -3.42383zM588.34 383.22l-55.4199 -32
c-3.60938 -2.17285 -7.8877 -3.4541 -12.4043 -3.4541c-13.2461 0 -24 10.7549 -24 24c0 9.04199 5.01074 16.9229 12.4043 21.0146l55.4199 32c3.43848 1.90234 7.44238 3.01562 11.6465 3.01562c13.2461 0 24 -10.7539 24 -24
c0 -8.72852 -4.66992 -16.376 -11.6465 -20.5762zM320 -64c-35.3223 0 -64 28.6777 -64 64h128c0 -35.3223 -28.6777 -64 -64 -64zM616 280c13.2461 0 24 -10.7539 24 -24s-10.7539 -24 -24 -24h-64c-13.2461 0 -24 10.7539 -24 24s10.7539 24 24 24h64z" />
    <glyph glyph-name="blinds-primary" unicode="&#xf8fb;" 
d="M512 432v-32c0 -8.83105 -7.16895 -16 -16 -16h-368v-162.94c18.6426 -6.59082 32.0146 -24.3809 32.0146 -45.2695c0 -26.4912 -21.5078 -48 -48 -48s-48 21.5088 -48 48c0 20.8887 13.3428 38.6787 31.9854 45.2695v162.94h-80c-8.83105 0 -16 7.16895 -16 16v32
c0 8.83105 7.16895 16 16 16h480c8.83105 0 16 -7.16895 16 -16z" />
    <glyph glyph-name="blinds-open-primary" unicode="&#xf8fc;" 
d="M512 432v-32c0 -8.83105 -7.16895 -16 -16 -16h-368v-146.94c18.6426 -6.59082 32.0146 -24.3809 32.0146 -45.2695c0 -26.4912 -21.5078 -48 -48 -48s-48 21.5088 -48 48c0 20.8887 13.3428 38.6787 31.9854 45.2695v146.94h-80c-8.83105 0 -16 7.16895 -16 16v32
c0 8.83105 7.16895 16 16 16h480c8.83105 0 16 -7.16895 16 -16z" />
    <glyph glyph-name="blinds-raised-primary" unicode="&#xf8fd;" 
d="M512 431.91v-32.1904v-0.0917969c0 -8.83008 -7.16895 -15.998 -16 -15.998h-368v-354c18.6426 -6.59082 32.0146 -24.3809 32.0146 -45.2695c0 -26.4922 -21.5078 -48 -48 -48s-48 21.5078 -48 48c0 20.8887 13.3428 38.6787 31.9854 45.2695v354h-80
c-8.83105 0 -16 7.16992 -16 16v0.0898438v32.1904v0.0917969c0 8.83008 7.16895 15.998 16 15.998h480c8.83105 0 16 -7.16895 16 -16v-0.0898438z" />
    <glyph glyph-name="camera-home-primary" unicode="&#xf8fe;" horiz-adv-x="448" 
d="M384 448c35.3223 0 64 -28.6777 64 -64v-288c0 -35.3223 -28.6777 -64 -64 -64h-72.7197l60.1396 -34.8301c6.92969 -4.32031 12.5801 -14.4502 12.5801 -22.6201v-11.8799c-0.00585938 -14.7031 -11.9316 -26.6426 -26.6299 -26.6699h-266.67
c-14.7168 0.00585938 -26.665 11.9531 -26.6699 26.6699v11.9004c0 8.14941 5.59961 18.2695 12.5 22.5996l60.1797 34.8301h-72.71c-35.3223 0 -64 28.6777 -64 64v288c0 35.3223 28.6777 64 64 64h320zM224 96c79.4639 0.0136719 143.976 64.5332 143.976 144
c0 79.4756 -64.5244 144 -144 144s-144 -64.5244 -144 -144c0 -79.4668 64.5107 -143.986 143.975 -144h0.0498047z" />
    <glyph glyph-name="caravan-primary" unicode="&#xf8ff;" horiz-adv-x="640" 
d="M624 128c8.83105 0 16 -7.16895 16 -16v-32c0 -8.83105 -7.16895 -16 -16 -16h-312.81c-4.19043 62.4697 -55.6602 112 -119.19 112s-115 -49.5303 -119.19 -112h-8.80957c-35.3223 0 -64 28.6777 -64 64v256c0 35.3223 28.6777 64 64 64h352
c88.3066 0 160 -71.6934 160 -160v-160h48zM256 256v64c0 17.6611 -14.3389 32 -32 32h-128c-17.6611 0 -32 -14.3389 -32 -32v-64c0 -17.6611 14.3389 -32 32 -32h128c17.6611 0 32 14.3389 32 32zM448 128v192c0 17.6611 -14.3389 32 -32 32h-64
c-17.6611 0 -32 -14.3389 -32 -32v-155.71c9.27148 -11.0186 17.1338 -23.165 23.4199 -36.29h104.58z" />
    <glyph glyph-name="rocket-secondary" unicode="&#x10f135;" 
d="M51.9414 293.516c7.34766 14.6094 26.5352 26.4688 42.8789 26.4844h102.055c-0.523438 -0.904297 -1.00391 -1.75781 -1.52344 -2.67188c-16.8789 -33.9551 -54.4492 -109.916 -77.8906 -157.328h-93.4609c-13.2441 0.00292969 -23.9971 10.7559 -24 24
c0.133789 3.79297 1.03613 7.43555 2.53125 10.7031zM224 53.3535c47.2734 23.3945 123.375 61.0664 157.336 78.0742c0.917969 0.523438 1.75781 1.00586 2.66406 1.52539v-0.527344c-0.0625 -0.0410156 -0.121094 -0.0878906 -0.1875 -0.128906v-101.516
c0 -16.3594 -11.875 -35.5469 -26.5 -42.8594l-98.7266 -49.3906c-3.24414 -1.4873 -6.86035 -2.38867 -10.625 -2.53125c-13.127 0.0878906 -23.7803 10.6865 -23.9609 23.791v93.5625z" />
    <glyph glyph-name="plug-secondary" unicode="&#x10f1e6;" horiz-adv-x="384" 
d="M288 448c17.6611 0 32 -14.3389 32 -32v-128h-64v128c0 17.6611 14.3389 32 32 32zM96 448c17.6611 0 32 -14.3389 32 -32v-128h-64v128c0 17.6611 14.3389 32 32 32z" />
    <glyph glyph-name="hand-spock-secondary" unicode="&#x10f259;" 
d="M481.26 350.901c17.6016 -4.18945 30.7275 -20.0049 30.7275 -38.8809c0 -3.19824 -0.375977 -6.30859 -1.08691 -9.29102l-68.2969 -286.823c-10.8955 -45.7695 -52.0781 -79.9062 -101.163 -79.9062h-127.366c-36.0283 0.000976562 -68.8428 14.0469 -93.1836 36.9531
l-108.3 101.92c-7.72754 7.29297 -12.5303 17.6279 -12.5303 29.082c0 22.0723 17.9199 39.9922 39.9922 39.9922c10.5742 0 20.1953 -4.1123 27.3506 -10.8242l60.5928 -57.0254c0 27.958 -4.1084 54.9482 -11.668 80.4688l-42.6904 144.073
c-1.06738 3.60254 -1.6543 7.40918 -1.6543 11.3555c0 22.0801 17.9268 40.0059 40.0059 40.0059c18.1328 0 33.4648 -12.0898 38.3662 -28.6426l37.1562 -125.395c1.02051 -3.44629 4.21094 -5.96777 7.98633 -5.96777c4.59766 0 8.33008 3.73242 8.33008 8.33008
c0 0.717773 -0.0908203 1.41504 -0.261719 2.0791l-50.3047 195.641c-0.821289 3.19238 -1.26562 6.50684 -1.26562 9.95312c0 22.0752 17.9219 39.9961 39.9961 39.9961c18.6279 0 34.2988 -12.7617 38.7383 -30.0117l56.0967 -218.158
c1.15625 -4.49512 5.23828 -7.81836 10.0928 -7.81836c5.03125 0 9.23438 3.57324 10.208 8.31836l37.6797 183.705c3.7627 18.2139 19.9082 31.9443 39.2305 31.9443c4.20703 0 8.2627 -0.649414 12.0742 -1.85449c19.8594 -6.30078 30.8633 -27.6738 26.6758 -48.0859
l-33.8398 -164.965c-0.100586 -0.491211 -0.154297 -0.991211 -0.154297 -1.5127c0 -4.16895 3.38379 -7.55273 7.55273 -7.55273c3.56445 0 6.55566 2.47461 7.34766 5.79785l29.3945 123.459c4.20703 17.5996 20.0293 30.7188 38.9111 30.7188
c3.18652 0 6.28711 -0.373047 9.25977 -1.07812zM352.003 80c8.81543 0.0185547 15.9658 7.18066 15.9658 16s-7.15039 15.9814 -15.9658 16h-159.999c-8.81543 -0.0185547 -15.9658 -7.18066 -15.9658 -16s7.15039 -15.9814 15.9658 -16
c44.1318 -0.046875 79.9531 -35.8682 79.999 -80c0 -8.83105 7.16992 -16 16 -16c8.83105 0 16 7.16895 16 16c0 0.0263672 0.0234375 0.0595703 0.0234375 0.0859375c0 31.3125 -12.918 59.6309 -33.7109 79.9141h81.6875z" />
    <glyph glyph-name="shower-secondary" unicode="&#x10f2cc;" 
d="M336 224c8.83105 0 16 -7.16895 16 -16s-7.16895 -16 -16 -16s-16 7.16895 -16 16s7.16895 16 16 16zM336 128c-8.83105 0 -16 7.16895 -16 16s7.16895 16 16 16s16 -7.16895 16 -16s-7.16895 -16 -16 -16zM304 128c8.83105 0 16 -7.16895 16 -16s-7.16895 -16 -16 -16
s-16 7.16895 -16 16s7.16895 16 16 16zM432 224c-8.83105 0 -16 7.16895 -16 16s7.16895 16 16 16s16 -7.16895 16 -16s-7.16895 -16 -16 -16zM368 160c-8.83105 0 -16 7.16895 -16 16s7.16895 16 16 16s16 -7.16895 16 -16s-7.16895 -16 -16 -16zM384 208
c0 8.83105 7.16895 16 16 16s16 -7.16895 16 -16s-7.16895 -16 -16 -16s-16 7.16895 -16 16zM304 192c8.83105 0 16 -7.16895 16 -16s-7.16895 -16 -16 -16s-16 7.16895 -16 16s7.16895 16 16 16zM336 96c8.83105 0 16 -7.16895 16 -16s-7.16895 -16 -16 -16
s-16 7.16895 -16 16s7.16895 16 16 16zM464 224c8.83105 0 16 -7.16895 16 -16s-7.16895 -16 -16 -16s-16 7.16895 -16 16s7.16895 16 16 16zM496 256c8.83105 0 16 -7.16895 16 -16s-7.16895 -16 -16 -16s-16 7.16895 -16 16s7.16895 16 16 16zM432 192
c8.83105 0 16 -7.16895 16 -16s-7.16895 -16 -16 -16s-16 7.16895 -16 16s7.16895 16 16 16zM400 160c8.83105 0 16 -7.16895 16 -16s-7.16895 -16 -16 -16s-16 7.16895 -16 16s7.16895 16 16 16zM304 64c8.83105 0 16 -7.16895 16 -16s-7.16895 -16 -16 -16
s-16 7.16895 -16 16s7.16895 16 16 16zM368 256c8.83105 0 16 -7.16895 16 -16s-7.16895 -16 -16 -16s-16 7.16895 -16 16s7.16895 16 16 16zM368 128c8.83105 0 16 -7.16895 16 -16s-7.16895 -16 -16 -16s-16 7.16895 -16 16s7.16895 16 16 16z" />
    <glyph glyph-name="bath-secondary" unicode="&#x10f2cd;" 
d="M80 192h-48v186.75v0.0361328c0 38.2207 31.0303 69.25 69.25 69.25c19.1113 0 36.4346 -7.74902 48.9697 -20.2861l19.2607 -19.2695c29.8994 13.1299 59.1094 7.60938 79.7295 -8.62012l0.169922 0.169922c2.89453 2.88477 6.88672 4.66895 11.293 4.66895
c4.4209 0 8.42969 -1.7959 11.3271 -4.69922l11.3096 -11.3096c2.89746 -2.89648 4.69043 -6.89746 4.69043 -11.3135s-1.79297 -8.4209 -4.69043 -11.3174l-105.369 -105.369c-2.89648 -2.89746 -6.89746 -4.69043 -11.3135 -4.69043s-8.4209 1.79297 -11.3174 4.69043
l-11.3096 11.3096c-2.89355 2.89551 -4.68457 6.89453 -4.68457 11.3076s1.79102 8.41699 4.68457 11.3125l0.169922 0.169922c-16.2295 20.6201 -21.75 49.8496 -8.62012 79.7295l-19.2695 19.2607c-3.84766 3.83984 -9.15723 6.2168 -15.0176 6.2168
c-11.7275 0 -21.2539 -9.52051 -21.2627 -21.2471v-186.75z" />
    <glyph glyph-name="compress-alt-secondary" unicode="&#x10f422;" horiz-adv-x="448" 
d="M224 168v-112c0 -21.3799 -25.7998 -32.0898 -40.9199 -17l-31.0801 33l-99.3096 -99.3096c-2.89648 -2.89746 -6.89746 -4.69043 -11.3135 -4.69043s-8.4209 1.79297 -11.3174 4.69043l-25.3691 25.3691c-2.89746 2.89648 -4.69043 6.89746 -4.69043 11.3135
s1.79297 8.4209 4.69043 11.3174l99.3096 99.3096l-32.9199 31c-15.1201 15.1201 -4.41016 41 17 41h112c13.208 -0.0439453 23.9199 -10.7812 23.9199 -24z" />
    <glyph glyph-name="expand-alt-secondary" unicode="&#x10f424;" horiz-adv-x="448" 
d="M0 -8v112c0 21.3799 25.7998 32.0898 40.9199 17l31.0801 -33l92.6904 92.6904c2.89551 2.89355 6.89355 4.68457 11.3076 4.68457c4.41309 0 8.41602 -1.79102 11.3115 -4.68457l25.3809 -25.3809c2.89355 -2.89551 4.68457 -6.89355 4.68457 -11.3076
c0 -4.41309 -1.79102 -8.41602 -4.68457 -11.3115l-92.6904 -92.6904l32.9199 -31c15.1201 -15.1201 4.41016 -41 -17 -41h-111.92c-13.2461 0 -24 10.7539 -24 24z" />
    <glyph glyph-name="balance-scale-left-secondary" unicode="&#x10f515;" horiz-adv-x="640" 
d="M544 -16v-32c0 -8.83105 -7.16895 -16 -16 -16h-224c-8.83105 0 -16 7.16895 -16 16v342.75c-4.56055 1.97559 -8.92285 4.37109 -13 7.12012l-142 -47.6299c-1.59863 -0.537109 -3.30957 -0.827148 -5.08789 -0.827148c-7.05273 0 -13.0449 4.56641 -15.1719 10.9072
l-10.1699 30.3398c-0.537109 1.59863 -0.827148 3.30957 -0.827148 5.08789c0 7.05273 4.56641 13.0449 10.9072 15.1719l128.35 43.0801c-0.540039 3.28027 -0.876953 6.59766 -1 10c0 44.1533 35.8467 80 80 80c29.6904 0 55.2998 -16.3604 69.1104 -40.3701
l117.89 39.5303c1.59863 0.536133 3.30957 0.827148 5.08789 0.827148c7.05273 0 13.0449 -4.56641 15.1719 -10.9072l10.1699 -30.3398c0.537109 -1.59863 0.827148 -3.30957 0.827148 -5.08789c0 -7.05371 -4.56641 -13.0449 -10.9072 -15.1719l-132 -44.2607
c-7.19141 -21.2549 -23.002 -38.458 -43.3496 -47.4697v-294.75h176c8.83105 0 16 -7.16895 16 -16z" />
    <glyph glyph-name="balance-scale-right-secondary" unicode="&#x10f516;" horiz-adv-x="640" 
d="M112 0h176v294.76c-20.3613 9.00293 -36.1846 26.208 -43.3799 47.4707l-132 44.2598c-6.34082 2.12695 -10.9141 8.12012 -10.9141 15.1729c0 1.77832 0.297852 3.48828 0.833984 5.08691l10.1602 30.3398c2.12305 6.34668 8.12012 10.9268 15.1777 10.9268
c1.79102 0 3.51367 -0.302734 5.12207 -0.84668l117.89 -39.54c13.8105 24.0098 39.4199 40.3701 69.1104 40.3701c44.1533 0 80 -35.8467 80 -80c-0.123047 -3.40234 -0.459961 -6.71973 -1 -10l128.4 -43.0498c6.34082 -2.12695 10.9141 -8.12012 10.9141 -15.1738
c0 -1.77832 -0.297852 -3.4873 -0.833984 -5.08594l-10.1807 -30.3701c-2.12305 -6.34766 -8.12012 -10.9268 -15.1777 -10.9268c-1.79102 0 -3.51367 0.302734 -5.12207 0.84668l-142 47.6299c-4.07715 -2.74902 -8.43945 -5.14453 -13 -7.12012v-342.75
c0 -8.83105 -7.16895 -16 -16 -16h-224c-8.83105 0 -16 7.16895 -16 16v32c0 8.83105 7.16895 16 16 16z" />
    <glyph glyph-name="robot-secondary" unicode="&#x10f544;" horiz-adv-x="640" 
d="M288 32v32h64v-32h-64zM192 32v32h64v-32h-64zM0 192c0 0.0126953 -0.000976562 0.0253906 -0.000976562 0.0380859c0 17.6406 14.3213 31.9619 31.9619 31.9619h0.0390625h32v-192h-32c-0.0126953 0 -0.0253906 -0.000976562 -0.0380859 -0.000976562
c-17.6406 0 -31.9619 14.3213 -31.9619 31.9619v0.0390625v128zM384 32v32h64v-32h-64zM608 224c0.0126953 0 0.0253906 0.000976562 0.0380859 0.000976562c17.6406 0 31.9619 -14.3213 31.9619 -31.9619v-0.0390625v-128
c0 -0.0126953 0.000976562 -0.0253906 0.000976562 -0.0380859c0 -17.6406 -14.3213 -31.9619 -31.9619 -31.9619h-0.0390625h-32v192h32zM320 448c17.6611 0 32 -14.3389 32 -32v-64h-64v64c0 17.6611 14.3389 32 32 32z" />
    <glyph glyph-name="grin-tongue-wink-secondary" unicode="&#x10f58b;" horiz-adv-x="496" 
d="M248 440c137 0 248 -111 248 -248.12c0 -106.27 -67 -196.689 -161 -232c5.67773 12.1328 8.92871 25.7461 9 40v45.5205c24.7002 16.1992 43.5 38.0996 47.7998 63.8096c0.148438 0.875 0.224609 1.75586 0.224609 2.67285c0 8.83105 -7.16992 16 -16 16
c-1.71777 0 -3.37305 -0.270508 -4.9248 -0.772461c-30.1992 -9.7002 -75.0996 -15.2002 -123.1 -15.2002s-92.9004 5.5 -123.1 15.2002c-1.53027 0.484375 -3.16113 0.764648 -4.85059 0.764648c-8.86426 0 -16.0605 -7.19629 -16.0605 -16.0596
c0 -0.886719 0.0722656 -1.75781 0.210938 -2.60547c4.2998 -25.71 23.0996 -47.6104 47.7998 -63.8096v-45.4707c0.0712891 -14.2539 3.32227 -27.8662 9 -40c-94 35.25 -161 125.67 -161 232c0 137.07 111 248.07 248 248.07zM192 215
c8.40039 -7.45996 21.5996 -0.360352 20 10.7402c-4 25.2598 -34.2002 42.1699 -59.9004 42.1699c-25.6992 0 -55.8994 -16.9102 -59.8994 -42.1104c-1.7998 -11.0996 11.2998 -18.2002 19.7998 -10.7998l9.5 8.5c14.7998 13.2002 46.2002 13.2002 61 0zM297.71 194.78
v-0.0703125h0.0703125c11.582 -11.5635 27.5674 -18.7197 45.2109 -18.7197c35.3223 0 64 28.6777 64 64c0 35.3232 -28.6777 64 -64 64s-64 -28.6768 -64 -64c0 -17.6426 7.15527 -33.6279 18.7188 -45.21z" />
    <glyph glyph-name="atom-secondary" unicode="&#x10f5d2;" horiz-adv-x="448" 
d="M439.195 320c18.7539 -33.4668 6.61035 -80.5977 -27.5166 -127.998c34.127 -47.4004 46.2705 -94.5352 27.5166 -128.002c-28.3809 -50.6426 -107.492 -40.9414 -118.631 -39.7363c8.52344 19.9395 15.4111 41.3047 20.1562 62.9297
c36.667 -1.1748 44.4521 8.40625 44.6768 8.80664c3.37109 6.01172 -1.80566 24.1172 -16.6211 47.377c-6.81738 -6.47656 -13.8809 -12.8965 -21.4336 -19.1641c3.10254 22.3213 4.70703 44.1162 4.70703 67.2852c0 23.1699 -1.60449 45.9678 -4.70703 68.2891
c7.55273 -6.26758 14.6123 -12.6875 21.4336 -19.1641c14.8154 23.2617 19.9922 41.3652 16.6201 47.3789c-0.224609 0.400391 -7.98145 9.97461 -44.6758 8.80469c-4.74512 21.625 -11.6328 42.9902 -20.1562 62.9297c11.4395 1.2373 90.3027 10.8232 118.631 -39.7363z
M224 263.721c-21.4248 -10.4336 -35.1318 -17.4697 -62.3506 -37.0234c-14.8252 -10.6133 -28.584 -22.0732 -41.6768 -34.6973c13.0928 -12.624 26.8516 -24.084 41.6768 -34.6973c27.2412 -19.5703 40.9277 -26.5889 62.3506 -37.0215
c21.3877 10.415 35.084 17.4336 62.3506 37.0215c-5.68848 -73.4023 -27.2266 -113.545 -30.0322 -119.092c-10.6191 3.38672 -21.4258 7.46875 -32.3184 11.9551c-10.8887 -4.48438 -21.6992 -8.56836 -32.3184 -11.9551
c-20.4854 -6.64941 -42.2246 -11.4326 -64.2461 -13.9473c-11.4395 -1.2373 -90.3027 -10.8193 -118.631 39.7363c-18.7539 33.4668 -6.61035 80.6016 27.5166 128.002c-34.127 47.4004 -46.2705 94.5312 -27.5166 127.998c28.3789 50.6426 107.515 40.9414 118.631 39.7383
c22.0215 -2.51367 43.7607 -7.29688 64.2461 -13.9473c10.6191 -3.38672 21.4297 -7.4707 32.3184 -11.957c10.8887 4.48438 21.6992 8.56836 32.3184 11.9551c2.81445 -5.56348 24.3447 -45.7021 30.0322 -119.092c-27.2471 19.5742 -40.7363 26.4941 -62.3506 37.0234z
M144.54 92.0723c-15.3193 9.92578 -29.8447 20.5674 -43.8828 32.1406c-7.55273 6.26758 -14.6162 12.6875 -21.4336 19.1641c-14.8154 -23.2598 -19.9922 -41.3652 -16.6211 -47.3789c0.225586 -0.400391 8.01465 -9.97949 44.6768 -8.80469
c12.7402 0.533203 25.1934 2.19824 37.2607 4.87891zM100.657 259.787c14.0391 11.5732 28.5635 22.2158 43.8828 32.1426c-12.0664 2.68066 -24.5186 4.3457 -37.2568 4.87891c-36.6777 1.17188 -44.4561 -8.4082 -44.6807 -8.80859
c-3.37109 -6.01172 1.80566 -24.1172 16.6211 -47.377c6.81738 6.47656 13.8818 12.8965 21.4336 19.1641z" />
    <glyph glyph-name="atom-alt-secondary" unicode="&#x10f5d3;" horiz-adv-x="448" 
d="M424.373 392.309c39.2197 -39.209 27.9033 -118.229 -21.3076 -200.309c-12.2627 20.4375 -25.8184 39.7109 -40.8213 58.084c24.5352 50.0234 26.4033 87.4258 16.8604 96.9688c-1.83789 1.83789 -27.0498 17.0977 -97.0625 -17.2363
c-20.4756 -10.1006 -39.8672 -21.9727 -58.042 -35.4727c-39.1572 -29.1885 -73.2783 -63.2432 -102.541 -102.342c-13.5967 18.1709 -25.5439 37.5742 -35.7021 58.082c28.8193 35.3242 54.8262 59.041 80.2012 79.7344c18.3594 15.0742 37.6143 28.6973 58.042 41.0371
c48.4336 29.0176 95.8281 45.1445 134.583 45.1445c26.9258 0 49.7109 -7.61914 65.79 -23.6914zM224 89.6582c39.1572 29.1885 73.2783 63.2432 102.541 102.342c13.5977 -18.1709 25.5449 -37.5742 35.7031 -58.084
c-28.7793 -35.2783 -54.8125 -59.0293 -80.2021 -79.7344c-18.3594 -15.0742 -37.6143 -28.6973 -58.042 -41.0371c-48.4336 -29.0176 -95.8281 -45.1445 -134.583 -45.1445c-26.9258 0 -49.7109 7.61914 -65.79 23.6934c-39.2197 39.207 -27.9033 118.227 21.3076 200.307
c12.2627 -20.4375 25.8184 -39.7109 40.8213 -58.084c-24.5352 -50.0254 -26.4033 -87.4258 -16.8604 -96.9688c1.83789 -1.83789 27.0498 -17.0977 97.0625 17.2363c20.4746 10.1025 39.8662 21.9746 58.042 35.4746z" />
    <glyph glyph-name="shapes-secondary" unicode="&#x10f61f;" 
d="M128 192c70.6455 0 128 -57.3545 128 -128s-57.3545 -128 -128 -128s-128 57.3545 -128 128s57.3545 128 128 128zM507.51 272c12.6699 -21.3301 -3.16992 -48 -28.5098 -48h-189.98c-25.3398 0 -41.1797 26.6699 -28.5098 48l95 160
c12.6504 21.3301 44.3301 21.3301 57 0z" />
    <glyph glyph-name="envelope-open-dollar-secondary" unicode="&#x10f657;" 
d="M64 190.38v161.62c0 17.6611 14.3389 32 32 32h320c17.6611 0 32 -14.3389 32 -32v-161.62l-163.88 -118.38c-7.88867 -5.71582 -17.6709 -9.08691 -28.1484 -9.08691s-20.1729 3.37109 -28.0615 9.08691zM240 312.88
c-23.6201 -0.629883 -42.6699 -20.5498 -42.6699 -45.0703c0 -20 13 -37.8096 31.5801 -43.3896l45 -13.5c5.16016 -1.5498 8.76953 -6.78027 8.76953 -12.7295c0 -7.27051 -5.2998 -13.1904 -11.7998 -13.1904h-28.1104
c-4.68262 0.0195312 -9.07812 1.39453 -12.7695 3.73047c-1.31152 0.885742 -2.90332 1.40625 -4.60352 1.40625c-2.12695 0 -4.06641 -0.80957 -5.52637 -2.13672l-11.75 -11.2197c-1.55078 -1.45996 -2.5166 -3.53223 -2.5166 -5.82715
c0 -2.12109 0.827148 -4.05078 2.17676 -5.4834c-0.129883 0 12.3896 -11.1797 32.2197 -12.1797v-16.29c0 -4.41504 3.58496 -8 8 -8h16c4.41504 0 8 3.58496 8 8v16.1201c23.6201 0.629883 42.6699 20.54 42.6699 45.0703c0 20 -13 37.8096 -31.5801 43.3896l-45 13.5
c-5.16016 1.5498 -8.76953 6.78027 -8.76953 12.7295c0 7.27051 5.2998 13.1904 11.7998 13.1904h28.1104c4.7002 -0.0146484 9.11328 -1.38965 12.8193 -3.73047c1.31055 -0.889648 2.9043 -1.41504 4.60645 -1.41504c2.12793 0 4.06738 0.813477 5.52344 2.14551
l11.75 11.2197c4.08008 3.82031 2.44043 9.08008 0.339844 11.3105c-8.88867 7.1582 -20.1094 11.6465 -32.2695 12.1797v16.29c0 4.41504 -3.58496 8 -8 8h-16c-4.41504 0 -8 -3.58496 -8 -8v-16.1201z" />
    <glyph glyph-name="envelope-open-text-secondary" unicode="&#x10f658;" 
d="M64 190.4v161.6c0 17.6611 14.3389 32 32 32h320c17.6611 0 32 -14.3389 32 -32v-161.6l-163.9 -118.4c-7.87695 -5.73926 -17.6592 -9.12598 -28.1426 -9.12598c-10.4824 0 -20.1797 3.38672 -28.0566 9.12598zM160 288v-16c0 -8.83105 7.16895 -16 16 -16h160
c8.83105 0 16 7.16895 16 16v16c0 8.83105 -7.16895 16 -16 16h-160c-8.83105 0 -16 -7.16895 -16 -16zM160 208v-16c0 -8.83105 7.16895 -16 16 -16h160c8.83105 0 16 7.16895 16 16v16c0 8.83105 -7.16895 16 -16 16h-160c-8.83105 0 -16 -7.16895 -16 -16z" />
    <glyph glyph-name="bahai-secondary" unicode="&#x10f666;" 
d="M239.69 230l16.3096 51.2803l16.29 -51.2803l44.9502 28.6201l-20 -49.8701l52.5693 -7.37988l-46.9092 -25.1201l35.6094 -39.9297l-51.8896 11.2998l2 -53.79l-32.6201 42.4902l-32.5898 -42.4902l2 53.79l-51.8906 -11.2998l35.6006 39.9297l-46.9199 25.1699
l52.5693 7.37988l-20 49.8701z" />
    <glyph glyph-name="lightbulb-on-secondary" unicode="&#x10f672;" horiz-adv-x="640" 
d="M319.45 448c97.46 0.30957 176.55 -78.6299 176.55 -176c0 -0.0830078 -0.03125 -0.245117 -0.03125 -0.328125c0 -44.2197 -16.4365 -84.6309 -43.5283 -115.452c-16.5205 -18.8496 -42.3604 -58.2197 -52.21 -91.4395
c-0.0400391 -0.280273 -0.110352 -0.530273 -0.110352 -0.780273h-160.24c-0.0400391 0.25 -0.110352 0.5 -0.110352 0.780273c-9.84961 33.2197 -35.6895 72.5898 -52.21 91.4395c-27.0918 30.8213 -43.5596 71.3115 -43.5596 115.531v0.249023
c0 93 73.4404 175.69 175.45 176zM320 352c8.83105 0 16 7.16895 16 16s-7.16895 16 -16 16c-61.7842 -0.0664062 -111.934 -50.2158 -112 -112c0 -8.83105 7.16895 -16 16 -16s16 7.16895 16 16c0.0498047 44.1299 35.8701 79.9502 80 80z" />
    <glyph glyph-name="dog-secondary" unicode="&#x10f6d3;" horiz-adv-x="576" 
d="M448 170l-149 54l21 26l128 -46v-34z" />
    <glyph glyph-name="dog-leashed-secondary" unicode="&#x10f6d4;" horiz-adv-x="576" 
d="M448 204v-34l-128 46.3896v-152.39h-48v160l-233.83 182.75c-3.76172 2.92871 -6.18359 7.5 -6.18359 12.6318c0 3.69727 1.27539 7.10742 3.38379 9.81836l9.82031 12.6201c2.92773 3.76562 7.50098 6.18945 12.6367 6.18945
c3.69434 0 7.10352 -1.27344 9.8125 -3.37988l252.36 -188.63z" />
    <glyph glyph-name="meteor-secondary" unicode="&#x10f753;" 
d="M491.128 447.291c1.4834 0.448242 3.05273 0.694336 4.68262 0.694336c8.93164 0 16.1826 -7.25098 16.1826 -16.1836c0 -1.59863 -0.232422 -3.14453 -0.665039 -4.60449c-11.6074 -38.7021 -34.3076 -111.702 -61.3037 -187.701
c6.99902 -2.09277 13.4043 -3.99902 18.6074 -5.59277c6.58301 -2.00684 11.3691 -8.14453 11.3691 -15.3809c0 -2.71875 -0.676758 -5.28027 -1.87109 -7.52539c-22.1055 -42.2969 -82.6904 -152.795 -142.479 -214.403c-0.999023 -1.09375 -1.99902 -2.5 -2.99902 -3.5
c-35.2715 -35.3066 -84.0605 -57.1045 -137.86 -57.1045c-107.529 0 -194.83 87.2998 -194.83 194.83c0 53.7812 21.8379 102.502 57.123 137.771c1 1 2.40625 2 3.5 3c61.5996 59.9053 171.974 120.404 214.373 142.498c2.24512 1.19434 4.81934 1.88086 7.53809 1.88086
c7.23535 0 13.3604 -4.79688 15.3643 -11.3809c1.59375 -5.09375 3.5 -11.5938 5.59277 -18.5928c75.8955 26.999 148.978 49.7021 187.675 61.2959zM191.971 0c70.6318 0 127.98 57.3428 127.98 127.975v0.0234375c0 70.6445 -57.3359 127.998 -127.98 127.998
s-127.998 -57.3535 -127.998 -127.998s57.3535 -127.998 127.998 -127.998z" />
    <glyph glyph-name="stars-secondary" unicode="&#x10f762;" 
d="M415.998 367.998c-0.138672 -2.55664 -1.58398 -4.7666 -3.6875 -5.96289l-49.6416 -20.6992l-20.7031 -49.6436c-1.08984 -2.19336 -3.3457 -3.70312 -5.95996 -3.70312c-2.61328 0 -4.87695 1.50977 -5.9668 3.70312l-20.7031 49.6436l-49.6455 20.6992
c-2.18945 1.09277 -3.69434 3.34766 -3.69434 5.95898s1.50488 4.87305 3.69434 5.96582l49.6455 20.7021l20.7031 49.6406c1.08984 2.19434 3.3457 3.7041 5.95996 3.7041c2.61328 0 4.87695 -1.50977 5.9668 -3.7041l20.7031 -49.6406l49.6416 -20.7021
c2.10547 -1.19336 3.55273 -3.4043 3.6875 -5.96191zM509.055 228.771c1.74902 -0.875977 2.9502 -2.67969 2.9502 -4.7666c0 -2.08789 -1.20117 -3.89746 -2.9502 -4.77344l-39.7158 -16.5596l-16.5586 -39.708c-0.871094 -1.75586 -2.67578 -2.96387 -4.7666 -2.96387
s-3.90234 1.20801 -4.77246 2.96387l-16.5635 39.708l-39.7119 16.5596c-1.74805 0.875977 -2.9502 2.67871 -2.9502 4.7666s1.20215 3.89746 2.9502 4.77344l39.7119 16.5576l16.5635 39.71c0.871094 1.75488 2.67578 2.96191 4.7666 2.96191
c2.08984 0 3.90137 -1.20703 4.77246 -2.96191l16.5586 -39.71z" />
    <glyph glyph-name="satellite-secondary" unicode="&#x10f7bf;" 
d="M111.943 70.5488l22.6025 -22.6035l-17.8018 -17.8018c0.700195 -2.60059 1.59961 -5.00098 1.59961 -7.80176c0 -17.6631 -14.3398 -32.0039 -32.0039 -32.0039c-17.6631 0 -32.0039 14.3408 -32.0039 32.0039c0 17.6641 14.3408 32.0049 32.0039 32.0049
c2.80078 0 5.20117 -0.900391 7.80176 -1.60059zM502.777 182.874c5.70215 -5.74609 9.22754 -13.665 9.22754 -22.3916c0 -8.81445 -3.59473 -16.7949 -9.39746 -22.5547l-96.7109 -96.7129c-5.7666 -5.74902 -13.7295 -9.30469 -22.5068 -9.30469
c-8.77832 0 -16.7314 3.55566 -22.498 9.30469l-80.3594 80.3604l107.812 107.815l33.9531 34.0039l80.3896 -80.4307zM247.028 438.698l80.2695 -80.3008l-141.717 -141.859l-80.3389 80.3408c-5.74707 5.78711 -9.2998 13.7666 -9.2998 22.5586
s3.55273 16.7607 9.2998 22.5479l96.7109 96.7129c5.72559 5.74805 13.6484 9.30176 22.3945 9.30176h0.108398c0.00488281 0 0.0146484 0.00390625 0.0205078 0.00390625c8.79395 0 16.7646 -3.55566 22.5518 -9.30566z" />
    <glyph glyph-name="satellite-dish-secondary" unicode="&#x10f7c0;" 
d="M224.037 191.812l0.0185547 -0.0498047c17.6611 0 32.001 -14.3398 32.001 -32.002c0 -17.6611 -14.3398 -32.001 -32.001 -32.001h-0.0185547c-2.80078 0 -5.20117 0.900391 -7.80078 1.60059l-27.4043 -27.4014l-22.6035 22.6504l27.4043 27.4014
c-0.700195 2.60059 -1.60059 5 -1.60059 7.80078c0.000976562 17.6621 14.3428 32.001 32.0049 32.001zM511.981 144.961c0.0117188 -0.141602 0.0185547 -0.276367 0.0185547 -0.420898s-0.00683594 -0.288086 -0.0185547 -0.429688
c0 -0.0205078 -0.00292969 -0.0390625 -0.00292969 -0.0595703c0 -8.85742 -7.1582 -16.0557 -16 -16.1211h-32.1045c-8.45996 0.0361328 -15.3799 6.66406 -15.9023 15.001c-7.50195 129.505 -111.518 234.509 -240.938 241.509
c-8.34863 0.448242 -15.002 7.36719 -15.002 15.8271v0.0732422v32.4316l0.00488281 0.0898438c0.496094 8.43164 7.48633 15.1387 16.041 15.1387c0.321289 0 0.640625 -0.00976562 0.957031 -0.0283203c163.225 -8.65039 294.444 -139.855 302.946 -303.011z
M209.335 351.969c110.116 -8.55078 198.23 -96.6543 206.672 -206.758v-1v-0.0107422c0 -0.0166016 -0.000976562 -0.0322266 -0.000976562 -0.0488281c0 -8.91992 -7.22852 -16.1641 -16.1416 -16.1914h-32.2051c-8.35059 0.0625 -15.1973 6.51758 -15.9023 14.7002
c-6.90137 77.0029 -68.1104 138.905 -144.923 145.206c-8.26074 0.591797 -14.8018 7.49023 -14.8018 15.9004v32.1016c0 0.399414 0.0498047 0.790039 0.0498047 1.18945l0.000976562 0.00488281c0.608398 8.34473 7.56543 14.9492 16.0645 14.9492
c0.399414 0 0.794922 -0.0146484 1.1875 -0.0429688z" />
    <glyph glyph-name="user-nurse-secondary" unicode="&#x10f82f;" horiz-adv-x="448" 
d="M304 288h48v-16c0 -70.6455 -57.3545 -128 -128 -128s-128 57.3545 -128 128v16h48v-16c0 -44.1533 35.8467 -80 80 -80s80 35.8467 80 80v16z" />
    <glyph glyph-name="flux-capacitor-secondary" unicode="&#x10f8ba;" 
d="M283.429 82.2861v47.2227c16.4238 -9.48242 27.3701 -27.2305 27.3701 -47.543c0 -30.2764 -24.5811 -54.8564 -54.8574 -54.8564s-54.8574 24.5801 -54.8574 54.8564c0 20.3125 11.0635 38.0605 27.4873 47.543v-47.2227c0 -15.1387 12.29 -27.4287 27.4287 -27.4287
s27.4287 12.29 27.4287 27.4287zM146.286 356.571c30.2617 -0.03125 54.8252 -24.5947 54.8564 -54.8574c-0.0576172 -4.84082 -0.759766 -9.53027 -2.01074 -13.9883l-33.418 33.417c-4.97266 4.97363 -11.8496 8.04395 -19.4316 8.04395
c-15.165 0 -27.4766 -12.3115 -27.4766 -27.4756c0 -7.58301 3.07812 -14.4521 8.05176 -19.4248l33.4512 -33.3828c-4.46582 -1.2666 -9.16895 -1.98047 -14.0225 -2.0459c-30.2656 0.0126953 -54.834 24.5879 -54.834 54.8564s24.5684 54.8447 54.834 54.8574z
M420.571 448c50.4346 -0.0566406 91.3721 -40.9941 91.4287 -91.4287v-329.143c-0.0566406 -50.4346 -40.9941 -91.3721 -91.4287 -91.4287h-329.143c-50.4346 0.0566406 -91.3721 40.9941 -91.4287 91.4287v329.143c0.0566406 50.4346 40.9941 91.3721 91.4287 91.4287
h329.143zM365.714 210.286c50.4609 0 91.4287 40.9678 91.4287 91.4277c0 50.4609 -40.9678 91.4287 -91.4287 91.4287c-50.46 0 -91.4277 -40.9678 -91.4277 -91.4287c0.102539 -15.1289 3.98438 -29.4854 10.6621 -41.9883l-28.9482 -28.9375l-28.9482 28.9375
c6.67773 12.5029 10.5596 26.8594 10.6621 41.9883c0 50.4609 -40.9678 91.4287 -91.4277 91.4287c-50.4609 0 -91.4287 -40.9678 -91.4287 -91.4287c0 -50.46 40.9678 -91.4277 91.4287 -91.4277c15.1279 0.0986328 29.4854 3.97656 41.9883 10.6514l40.2969 -40.2979
v-11.5771c-37.0059 -11.7021 -64 -45.9082 -64 -86.7764c0 -50.4609 40.9678 -91.4287 91.4287 -91.4287s91.4287 40.9678 91.4287 91.4287c0 40.8682 -26.9941 75.0742 -64 86.7764v11.5771l40.2969 40.2979c12.5039 -6.6748 26.8604 -10.5527 41.9883 -10.6514z
M365.714 356.571c30.2656 -0.0126953 54.834 -24.5889 54.834 -54.8574s-24.5684 -54.8438 -54.834 -54.8564c-4.84082 0.0576172 -9.53027 0.759766 -13.9883 2.01074l33.417 33.418c4.97363 4.97266 8.04395 11.8496 8.04395 19.4316
c0 15.165 -12.3115 27.4766 -27.4756 27.4766c-7.58301 0 -14.4521 -3.07812 -19.4248 -8.05176l-33.3828 -33.4512c-1.26562 4.46582 -1.98047 9.16895 -2.0459 14.0225c0.03125 30.2627 24.5947 54.8262 54.8564 54.8574z" />
    <glyph glyph-name="piano-secondary" unicode="&#x10f8d4;" 
d="M512 64v-96c0 -17.6611 -14.3389 -32 -32 -32h-448c-17.6611 0 -32 14.3389 -32 32v96h48v-80h416v80h48z" />
    <glyph glyph-name="air-conditioner-secondary" unicode="&#x10f8f4;" horiz-adv-x="576" 
d="M216 24v168h48v-168c0 -48.5684 -39.4316 -88 -88 -88h-4.51953c-44.9307 0 -85.2207 32.1797 -90.7803 76.7598c-0.469727 3.6709 -0.734375 7.2959 -0.734375 11.0928c0 38.1816 24.4951 70.6875 58.6143 82.6475c1.66406 0.583008 3.45801 0.904297 5.32031 0.904297
c8.87695 0 16.0859 -7.2002 16.0996 -16.0742v-17.6201c0 -6.37988 -3.92969 -11.8496 -9.66016 -14.6299c-14.9199 -7.25 -24.7197 -23.0605 -21.8398 -41.4697c3.08984 -19.7305 21.2803 -33.6104 41.2803 -33.6104h6.21973c22.0762 0 40 17.9238 40 40zM437.42 138.5
c34.1191 -11.96 58.5928 -44.3486 58.5928 -82.5303c0 -3.79785 -0.243164 -7.53906 -0.712891 -11.21c-5.55957 -44.5801 -45.8496 -76.7598 -90.7695 -76.7598h-4.53027c-48.5684 0 -88 39.4316 -88 88v136h48v-136c0 -22.0762 17.9238 -40 40 -40h6.23047
c19.9697 0 38.1797 13.8799 41.2695 33.6104c2.87988 18.4092 -6.91992 34.2197 -21.8398 41.4697c-5.73047 2.78027 -9.66016 8.25 -9.66016 14.6299v17.6201c0.0136719 8.87402 7.22754 16.0693 16.1045 16.0693c1.8623 0 3.65137 -0.316406 5.31543 -0.899414zM64 320
h448v-32h-448v32z" />
    <glyph glyph-name="alien-secondary" unicode="&#x10f8f5;" horiz-adv-x="448" 
d="M224 448c123.719 0 224 -88.0293 224 -232.451c0 -111.777 -134.215 -224.598 -194.863 -269.873c-8.12109 -6.06152 -18.2744 -9.65234 -29.1777 -9.65234s-20.9746 3.59082 -29.0957 9.65234c-60.6484 45.2754 -194.863 158.096 -194.863 269.873
c0 144.422 100.281 232.451 224 232.451zM176 128c8.83008 0 16 7.16992 16 16c0 44.1523 -35.8477 80 -80 80h-32c-8.83008 0 -16 -7.16992 -16 -16c0 -44.1533 35.8467 -80 80 -80h32zM304 128c44.1533 0 80 35.8467 80 80c0 8.83008 -7.16992 16 -16 16h-32
c-44.1523 0 -80 -35.8477 -80 -80c0 -8.83008 7.16992 -16 16 -16h32z" />
    <glyph glyph-name="alien-monster-secondary" unicode="&#x10f8f6;" horiz-adv-x="576" 
d="M560 320c8.83008 0 16 -7.16992 16 -16v-128c0 -8.83008 -7.16992 -16 -16 -16h-48v-80c0 -8.83008 -7.16992 -16 -16 -16h-48v-80c0 -8.83008 -7.16992 -16 -16 -16h-96c-8.83008 0 -16 7.16992 -16 16v32c0 8.83008 7.16992 16 16 16h48v32h-192v-32h48
c8.83008 0 16 -7.16992 16 -16v-32c0 -8.83008 -7.16992 -16 -16 -16h-96c-8.83008 0 -16 7.16992 -16 16v80h-48c-8.83008 0 -16 7.16992 -16 16v80h-48c-8.83008 0 -16 7.16992 -16 16v128c0 8.83008 7.16992 16 16 16h32c8.83008 0 16 -7.16992 16 -16v-80h32v48
c0 8.83008 7.16992 16 16 16h48v64h-48c-8.83008 0 -16 7.16992 -16 16v32c0 8.83008 7.16992 16 16 16h32c8.83008 0 16 -7.16992 16 -16v-16h48c8.83008 0 16 -7.16992 16 -16v-48h128v48c0 8.83008 7.16992 16 16 16h48v16c0 8.83008 7.16992 16 16 16h32
c8.83008 0 16 -7.16992 16 -16v-32c0 -8.83008 -7.16992 -16 -16 -16h-48v-64h48c8.83008 0 16 -7.16992 16 -16v-48h32v80c0 8.83008 7.16992 16 16 16h32zM224 128v96h-64v-96h64zM416 128v96h-64v-96h64z" />
    <glyph glyph-name="bed-alt-secondary" unicode="&#x10f8f7;" 
d="M512 160v-64h-512v64c0 35.3223 28.6777 64 64 64h384c35.3223 0 64 -28.6777 64 -64z" />
    <glyph glyph-name="bed-bunk-secondary" unicode="&#x10f8f8;" horiz-adv-x="576" 
d="M144 192c26.4766 -0.0332031 47.9668 -21.5234 48 -48c0 -26.4922 -21.5078 -48 -48 -48s-48 21.5078 -48 48s21.5078 48 48 48zM144 448c26.4766 -0.0332031 47.9668 -21.5234 48 -48c0 -26.4922 -21.5078 -48 -48 -48s-48 21.5078 -48 48s21.5078 48 48 48zM464 448
c61.8145 0 112 -50.1855 112 -112v-16h-352v112c0 8.83105 7.16895 16 16 16h224zM240 192h224c17.1602 -0.0839844 33.5176 -4.1377 48 -11.1904v-116.81h-288v112c0 8.83105 7.16895 16 16 16z" />
    <glyph glyph-name="bed-empty-secondary" unicode="&#x10f8f9;" horiz-adv-x="640" 
d="M208 320c8.83105 0 16 -7.16895 16 -16v-144h-128v144c0 8.83105 7.16895 16 16 16h96zM528 320c61.8145 0 112 -50.1855 112 -112v-48h-384v144c0 8.83105 7.16895 16 16 16h256z" />
    <glyph glyph-name="bell-on-secondary" unicode="&#x10f8fa;" horiz-adv-x="640" 
d="M479.92 240c0 -102.31 36.1396 -133.53 55.4697 -154.28c5.33496 -5.60352 8.61133 -13.1895 8.61133 -21.5293c0 -0.0634766 -0.000976562 -0.126953 -0.000976562 -0.19043c-0.0898438 -16.4102 -12.9805 -32 -32.0898 -32h-383.82
c-19.0898 0 -31.9795 15.5898 -32.0898 32c0 0.0566406 -0.000976562 0.119141 -0.000976562 0.175781c0 8.3457 3.27637 15.9326 8.61133 21.5439c19.3301 20.75 55.4697 51.9707 55.4697 154.28c0 77.6904 54.4795 139.91 127.9 155.16v20.8398
c0 17.6611 14.3379 32 32 32c17.6611 0 32 -14.3389 32 -32v-20.8398c73.46 -15.25 127.939 -77.4697 127.939 -155.16z" />
    <glyph glyph-name="blinds-secondary" unicode="&#x10f8fb;" 
d="M96 221.06c-13.54 -4.80762 -24.252 -15.5195 -29.0596 -29.0596h-66.9404l16 96h80v-66.9404zM16 32h480l16 -96h-512zM128 288h368l16 -96h-354.94c-4.80762 13.54 -15.5195 24.252 -29.0596 29.0596v66.9404zM157.06 160h338.94l16 -96h-512l16 96h50.9404
c6.50586 -18.626 24.2119 -32.0029 45.0459 -32.0029c20.833 0 38.5674 13.377 45.0732 32.0029zM493.34 384l18.6602 -64h-384v64h365.34zM96 384v-64h-96l18.6602 64h77.3398z" />
    <glyph glyph-name="blinds-open-secondary" unicode="&#x10f8fc;" 
d="M96 384v-48h-96l16 48h80zM96 237.06c-13.5225 -4.83789 -24.2217 -15.5371 -29.0596 -29.0596h-66.9404l16 48h80v-18.9404zM496 384l16 -48h-384v48h368zM16 128h480l16 -48h-512zM16 -16h480l16 -48h-512zM128 256h368l16 -48h-354.94
c-4.83789 13.5225 -15.5371 24.2217 -29.0596 29.0596v18.9404z" />
    <glyph glyph-name="blinds-raised-secondary" unicode="&#x10f8fd;" 
d="M0 222.71l18.6602 64.3701h77.3398v-64.3701h-96zM128 287.08h365.34l18.6602 -64.3701h-384v64.3701zM493.34 383.63l18.6602 -64.3701h-384v64.3701h365.34zM0 319.26l18.6602 64.3701h77.3398v-64.3701h-96z" />
    <glyph glyph-name="camera-home-secondary" unicode="&#x10f8fe;" horiz-adv-x="448" 
d="M224 352c61.8027 -0.0136719 111.976 -50.1943 111.976 -112c0 -61.8145 -50.1855 -112 -112 -112s-112 50.1855 -112 112c0 61.8057 50.1719 111.986 111.975 112h0.0498047zM224 272c8.83105 0 16 7.16895 16 16s-7.16895 16 -16 16
c-35.3076 -0.0332031 -63.9668 -28.6924 -64 -64c0 -8.83105 7.16895 -16 16 -16s16 7.16895 16 16c0 17.6611 14.3389 32 32 32z" />
    <glyph glyph-name="caravan-secondary" unicode="&#x10f8ff;" horiz-adv-x="640" 
d="M256 256c0 -17.6611 -14.3389 -32 -32 -32h-128c-17.6611 0 -32 14.3389 -32 32v64c0 17.6611 14.3389 32 32 32h128c17.6611 0 32 -14.3389 32 -32v-64zM416 352c17.6611 0 32 -14.3389 32 -32v-192h-104.58c-6.28613 13.125 -14.1484 25.2715 -23.4199 36.29v155.71
c0 17.6611 14.3389 32 32 32h64zM416 208c8.83105 0 16 7.16895 16 16s-7.16895 16 -16 16s-16 -7.16895 -16 -16s7.16895 -16 16 -16zM192 144c48.5684 0 88 -39.4316 88 -88s-39.4316 -88 -88 -88s-88 39.4316 -88 88s39.4316 88 88 88z" />
  </font>
</defs>
</svg>
